Kijów - Ługańsk [07.04.2018, 1080i, H.264, POL, HDTV, SAT]

Ответить на тему

Автор Сообщение

dav7dbecks


Стаж: 9 лет 8 месяцев

Сообщений: 23007

Откуда: там где жизнь ничего не стоит, иногда обретает ценность смерть

СССР

Торрент-статистика

post 07-Апр-2018 15:24

Quote


Kijów - Ługańsk
Общее
Идентификатор : 1 (0x1)
Полное имя : D:\Kijow_Lugansk_07.04.2018_1080i_POL\01.ts
Формат : MPEG-TS
Размер файла : 2,30 Гбайт
Продолжительность : 53 м. 33 с.
Режим общего битрейта : Переменный
Общий поток : 6157 Кбит/сек

Видео
Идентификатор : 256 (0x100)
Идентификатор меню : 1 (0x1)
Формат : AVC
Формат/Информация : Advanced Video Codec
Профиль формата : Main@L4
Настройки формата : CABAC / 4 Ref Frames
Параметр CABAC формата : Да
Параметр RefFrames формата : 4 кадра
Идентификатор кодека : 27
Продолжительность : 53 м. 33 с.
Битрейт : 5465 Кбит/сек
Ширина : 1920 пикселей
Высота : 1080 пикселей
Соотношение сторон : 16:9
Частота кадров : 25,000 кадров/сек
Цветовое пространство : YUV
Субдискретизация насыщенности : 4:2:0
Битовая глубина : 8 бит
Тип развёртки : Чересстрочная
Метод сохранения типа развёртки : Раздельные поля
Порядок развёртки : Верхнее поле первое
Бит/(Пиксели*Кадры) : 0.105
Размер потока : 2,04 Гбайт (89%)
Цветовой диапазон : Limited
Основные цвета : BT.709
Характеристики трансфера : BT.709
Коэффициенты матрицы : BT.709

Аудио #1
Идентификатор : 257 (0x101)
Идентификатор меню : 1 (0x1)
Формат : MPEG Audio
Версия формата : Version 1
Профиль формата : Layer 2
Идентификатор кодека : 3
Продолжительность : 53 м. 33 с.
Вид битрейта : Постоянный
Битрейт : 192 Кбит/сек
Каналы : 2 канала
Частота : 48,0 КГц
Частота кадров : 41,667 кадра/сек (1152 SPF)
Метод сжатия : С потерями
Задержка видео : -40 мс.
Размер потока : 73,6 Мбайт (3%)
Язык : Polish

Аудио #2
Идентификатор : 258 (0x102)
Идентификатор меню : 1 (0x1)
Формат : MPEG Audio
Версия формата : Version 1
Профиль формата : Layer 2
Идентификатор кодека : 3
Продолжительность : 53 м. 33 с.
Вид битрейта : Постоянный
Битрейт : 192 Кбит/сек
Каналы : 2 канала
Частота : 48,0 КГц
Частота кадров : 41,667 кадра/сек (1152 SPF)
Метод сжатия : С потерями
Задержка видео : -40 мс.
Размер потока : 73,6 Мбайт (3%)


Последний раз редактировалось: dav7dbecks (2018-08-25 07:11), всего редактировалось 1 раз
Profile PM

post 07-Апр-2018 17:02 (спустя 1 час 38 минут)


Топик был перенесен из форума RG в форум VIP-Light Ukraine

dav7dbecks
 

post 05-Авг-2019 19:03 (спустя 1 год 3 месяца)


Топик был перенесен из форума VIP-Light Ukraine в форум Премьер-Лига 2018/19

fuххer666
 
Ответить на тему