Кубок Китая 2017 / FA Cup / 1/2 финала / Первый матч / Шанхай СИПГ - Гуанчжоу Эвергранд / CCTV5 [16.08.2017., HD, 720p, H264, CH, SAT]

Ответить на тему

Автор Сообщение

Chameleon


Стаж: 7 лет 6 месяцев

Сообщений: 4123

Откуда: Tyumen

Россия

Торрент-статистика

post 18-Авг-2017 17:03

Quote



Кубок Китая 2017 / FA Cup / 1/2 финала / Первый матч / Шанхай СИПГ - Гуанчжоу Эвергранд / Shanghai SIPG - Guangzhou Evergrande


Канал: CCTV5.
Комментарий: Профессиональный.
Язык комментариев: Китайский ().

Код:

Format                      : Matroska
Format version              : Version 4 / Version 2
File size                   : 3.26 GiB
Duration                    : 1h 46mn
Overall bit rate            : 4 394 Kbps
Movie name                  : Chameleon
Encoded date                : UTC 2017-08-18 12:37:17
Writing application         : mkvmerge v7.3.0 ('Nouages') 64bit built on Oct 22 2014 18:53:34
Writing library             : libebml v1.3.0 + libmatroska v1.4.1
_STATISTICS_WRITING_APP     : mkvmerge v7.3.0 ('Nouages') 64bit built on Oct 22 2014 18:53:34
_STATISTICS_WRITING_DATE_UT : 2017-08-18 12:37:17
_STATISTICS_TAGS            : BPS DURATION NUMBER_OF_FRAMES NUMBER_OF_BYTES
DURATION                    : 01:46:11.248000000
NUMBER_OF_FRAMES            : 199097
NUMBER_OF_BYTES             : 305812992

Video
ID                          : 1
Format                      : AVC
Format/Info                 : Advanced Video Codec
Format profile              : Main@L3
Format settings, CABAC      : Yes
Format settings, ReFrames   : 2 frames
Codec ID                    : V_MPEG4/ISO/AVC
Duration                    : 1h 46mn
Bit rate                    : 4 000 Kbps
Width                       : 1 280 pixels
Height                      : 720 pixels
Display aspect ratio        : 16:9
Frame rate mode             : Constant
Frame rate                  : 25.000 fps
Color space                 : YUV
Chroma subsampling          : 4:2:0
Bit depth                   : 8 bits
Scan type                   : Progressive
Bits/(Pixel*Frame)          : 0.174
Stream size                 : 2.91 GiB (89%)
Writing library             : x264 core 133 r2334 a3ac64b
Encoding settings           : cabac=1 / ref=2 / deblock=1:0:0 / analyse=0x1:0x111 / me=hex / subme=7 / psy=1 / psy_rd=1.00:0.00 / mixed_ref=1 / me_range=16 / chroma_me=1 / trellis=1 / 8x8dct=0 / cqm=0 / deadzone=21,11 / fast_pskip=1 / chroma_qp_offset=-2 / threads=12 / lookahead_threads=2 / sliced_threads=0 / nr=0 / decimate=1 / interlaced=0 / bluray_compat=0 / constrained_intra=0 / bframes=3 / b_pyramid=0 / b_adapt=1 / b_bias=0 / direct=1 / weightb=1 / open_gop=0 / weightp=2 / keyint=250 / keyint_min=25 / scenecut=40 / intra_refresh=0 / rc_lookahead=40 / rc=abr / mbtree=1 / bitrate=4000 / ratetol=1.0 / qcomp=0.60 / qpmin=10 / qpmax=51 / qpstep=4 / vbv_maxrate=10000 / vbv_bufsize=10000 / nal_hrd=none / ip_ratio=1.40 / aq=1:1.00
Default                     : Yes
Forced                      : No

Audio
ID                          : 2
Format                      : AC-3
Format/Info                 : Audio Coding 3
Mode extension              : CM (complete main)
Format settings, Endianness : Big
Codec ID                    : A_AC3
Duration                    : 1h 46mn
Bit rate mode               : Constant
Bit rate                    : 384 Kbps
Channel(s)                  : 6 channels
Channel positions           : Front: L C R, Side: L R, LFE
Sampling rate               : 48.0 KHz
Compression mode            : Lossy
Stream size                 : 292 MiB (9%)
Default                     : Yes
Forced                      : No
2 - 1

Для поддержания дальнейших релизов можете сделать "пожертвование":
PayPal -> Pay
Skrill -> chameleon13@ro.ru
Yandex -> 410015480601949


_________________
Продам все матчи чемпионата Австралии, Ирана, Катара, Коста-Рики, Венесуэлы, Китая, Южной Кореи. Матчи Бразильских штатов.
Продам матчи. Подробности в ЛС.
PayPal -> chameleon13@ro.ru
Skrill -> chameleon13@ro.ru
Yandex -> 410015480601949
Profile PM
Ответить на тему