Rome 2018 / 3 й круг / Новак Джокович - Альберт Рамос-Виньолас / Novak Djokovic - Albert Ramos-Vinolas / PolSat [17.05.2018, HD, 1080i, 25 fps, POL, IPTV]

Ответить на тему

Автор Сообщение

oleg_1954


Стаж: 7 лет 6 месяцев

Сообщений: 8678

Откуда: Волгоград

Россия

Торрент-статистика

post 18-Май-2018 17:43

Quote


Novak Djokovic - Albert Ramos-Vinolas. Rome 2018. 3rd Round
Новак Джокович - Альберт Рамос-Виньолас. Рим 2018. 3 й круг

Год выпуска: 17.05.2018 20:45 МСК
Вид спорта: Теннис
Участники: Новак Джокович - Альберт Рамос-Виньолас. Рим 2018. 3 й круг
Комментарий: Профессиональный Польский
Качество: IPTVRip
Формат: MKV
Видео кодек: H.264
Аудио кодек: MP2
Видео: MPEG4 Video H.264 1920x1080 25 fps Bit rate 4503 Kbps Aspect Ratio 16:9
Аудио: Польский MP2 48000 Hz stereo 192 Kbps
Спасибо leomessi00 за предоставленный исходный файл
01:26:32
General
Format : Matroska
Format version : Version 4 / Version 2
File size : 2.90 GiB
Duration : 1 h 26 min
Overall bit rate : 4 791 kb/s
Movie name : N.Djokovic - A.Ramos-Vinolas.Rome 2018.R3
Encoded date : UTC 2010-02-22 21:41:31
Writing application : mkvmerge v5.9.0 ('On The Loose') built on Dec 9 2012 15:37:01
Writing library : libebml v1.3.0 + libmatroska v1.4.0

Video
ID : 1
Format : AVC
Format/Info : Advanced Video Codec
Format profile : Main@L4
Format settings : CABAC / 4 Ref Frames
Format settings, CABAC : Yes
Format settings, RefFrames : 4 frames
Codec ID : V_MPEG4/ISO/AVC
Duration : 1 h 26 min
Bit rate : 4 503 kb/s
Width : 1 920 pixels
Height : 1 080 pixels
Display aspect ratio : 16:9
Frame rate mode : Constant
Frame rate : 50.000 FPS
Original frame rate : 25.000 FPS
Color space : YUV
Chroma subsampling : 4:2:0
Bit depth : 8 bits
Bits/(Pixel*Frame) : 0.043
Stream size : 2.72 GiB (94%)
Language : English
Default : Yes
Forced : No
Color range : Limited
Color primaries : BT.709
Transfer characteristics : BT.709
Matrix coefficients : BT.709

Audio
ID : 2
Format : MPEG Audio
Format version : Version 1
Format profile : Layer 2
Codec ID : A_MPEG/L2
Codec ID/Hint : MP2
Duration : 1 h 26 min
Bit rate mode : Constant
Bit rate : 192 kb/s
Channel(s) : 2 channels
Sampling rate : 48.0 kHz
Compression mode : Lossy
Stream size : 119 MiB (4%)
Language : Polish
Default : Yes
Forced : No

_________________
Donate: Yandexmoney 410011809224246
Profile PM
Ответить на тему